»
»

Скачать фильм Дьяволица / Люциферина / Luciferina (Гонсало Кальзада / Gonzalo Calzada) [2018, ужасы, мистика, WEBDLRip-AVC] VO - торрент

Нажмите синюю кнопку, чтобы cкачать бесплатно через торрент фильм. Фильм доступен на нашем торрент-трекере бесплатно, без регистрации и смс.

Статистика раздачи
29 [ 277.0 KB/s ] ↑ 1.6 GB ↓ 0 [ 0 b/s ]
Автор Сообщение
ERNIE2010
2018-11-16 18:51
Дьяволица / Люциферина / Luciferina
Дьяволица / Люциферина / Luciferina
Перевод: Любительский (одноголосый)datynet; перевод: Куценко, субтитры: отсутствуют
Формат: WEBDLRip-AVC, MKV, H.264, MP3
Страна: Аргентина
Режиссер: Гонсало Кальзада / Gonzalo Calzada
Жанр: ужасы, мистика
Продолжительность: 01:54:22
Год выпуска: 2018
В ролях: Виктория Каррерас, Гастон Кокьярале, Агустин Дауде, София дель Туффо, Франциско Донован, Чучо Фернандес, Стефания Кёсль, Томас Лапан, Марта Лубос, Педро Мерло, Дезэри Глория Сальгуеро, Малена Санчес, Вандо Вильямиль.
Описание: Наталия — 19-летняя послушница, которая вынуждена вернуться домой, чтобы попрощаться с умирающим отцом. Но встретившись со своей сестрой и ее друзьями, она неожиданно решается отправиться вместе с ними в джунгли на поиски некоего мистического растения. Вот только вместо позитивного опыта им придется узнать, что такое Черные Мессы, странные беременности и жестокие смерти. А будущая монахиня столкнется с самим Дьяволом.

[imdb=https://www.imdb.com/title/tt8072078/]

Видео: 1280x720 (16:9), 24fps, MPEG4 Video (H264) Main@L3.1 ~1 768 kbps avg, 0.080 bit/pixel
Аудио: 48 kHz, MPEG Layer 3, 2 ch, ~192.00 kbps avg
Доп. информация: 1 победа и 1 номинация:
Horrorant Film Festival 'Fright Nights' 2018




MI
General
Unique ID : 249433238956093345246843007360254509422 (0xBBA7182ACD4304C4AB7AEF0D87BA816E)
Complete name :Luciferina.2018.mkv
Format : Matroska
Format version : Version 4 / Version 2
File size : 1.57 GiB
Duration : 1 h 54 min
Overall bit rate : 1 961 kb/s
Movie name : LUCIFERINA 2018
Encoded date : UTC 2018-11-16 13:19:21
Writing application : mkvmerge v9.6.0 ('Slave To Your Mind') 64bit
Writing library : libebml v1.3.4 + libmatroska v1.4.5
Attachments : poster.png

Video
ID : 1
Format : AVC
Format/Info : Advanced Video Codec
Format profile : Main@L3.1
Format settings, CABAC : Yes
Format settings, RefFrames : 3 frames
Codec ID : V_MPEG4/ISO/AVC
Duration : 1 h 54 min
Bit rate : 1 768 kb/s
Width : 1 280 pixels
Height : 720 pixels
Display aspect ratio : 16:9
Frame rate mode : Constant
Frame rate : 24.000 FPS
Color space : YUV
Chroma subsampling : 4:2:0
Bit depth : 8 bits
Scan type : Progressive
Bits/(Pixel*Frame) : 0.080
Stream size : 1.41 GiB (90%)
Default : Yes
Forced : No

Audio
ID : 2
Format : MPEG Audio
Format version : Version 1
Format profile : Layer 3
Codec ID : A_MPEG/L3
Codec ID/Hint : MP3
Duration : 1 h 54 min
Bit rate mode : Constant
Bit rate : 192 kb/s
Channel(s) : 2 channels
Sampling rate : 48.0 kHz
Frame rate : 41.667 FPS (1152 SPF)
Compression mode : Lossy
Delay relative to video : -41 ms
Stream size : 157 MiB (10%)
Default : Yes
Forced : No




Информация о торренте:
Размер содержимого: 1.6 GB
Скачан: 1220 раз
Статус: Временная раздача
Зарегистрирован на трекере: 2018-11-16 17:51
Скачать торрент


Поддержи раздачу — поставь лайк:

savelovsky
2018-11-17 13:43
Случайно не на последнем скрине она сталкивается?
DeFN1051
2018-11-19 16:43
Похоже, фильм прилетел из 1970-х.
puffystic
2018-11-20 15:20
попробую глянуть.
очень люблю ужастики,давненько хороших не видел
может этот не плохой
Flaming69
2018-12-02 14:09
Хорошие скрины :nice:
Mizantrop17
2018-12-04 21:12
Страна: Аргентина
Ай-ай, мну нехорошооооооооо.....
-=VIRGIN=-
2018-12-09 17:59
Спасибо
Писать комментарии на нашем торрент-трекере могут только зарегистрированные пользователи.
Зарегистрируйтесь или авторизируйтесь на сайте.