»
»

Скачать сериал Лучше, чем люди (1-4 серии из 8) (Андрей Джунковский) / [2018, драма, фантастика, WEBRip 720p] - торрент

Нажмите на синюю кнопку ниже, чтобы скачать сериал бесплатно через торрент. Сериал доступен на нашем торрент-трекере бесплатно, без регистрации и смс.

Статистика раздачи
328 [ 115.0 KB/s ] ↑ 4.8 GB ↓ 1 [ 849.0 KB/s ]
Автор Сообщение
BLIZNEC W
2018-11-23 21:48
Лучше, чем люди (1-4 серии из 8)
Лучше, чем люди Перевод: Не требуется, cубтитры: отсутствуют
Формат: WEBRip 720p, MKV, H.264, AC3
Страна: Россия
Режиссер: Андрей Джунковский
Жанр: драма, фантастика
Всего серий: 8
Продолжительность: 4 х ~ 00:50:00
Год выпуска: 2018

В ролях: Паулина Андреева, Александр Устюгов, Кирилл Кяро, Ольга Ломоносова, Александр Кузнецов (IX), Ирина Таранник, Виталия Корниенко, Михаил Кремер, Татьяна Ермилова, Денис Бургазлиев, Сергей Тэсслер, Виктория Корлякова, Вера Панфилова, Сергей Сосновский, Ксения Кубасова, Мария Луговая, Олег Морозов, Владимир Лукьянчиков, Алевтина Тукан, Павел Усачев, Сергей Губанов

Описание: Действие происходит в недалеком будущем, где роботы-андроиды стали обыденным явлением и вошли во все сферы жизни людей – они помогают им воспитывать детей, работают персональными водителями и охранниками. Для большинства людей боты – просто бездушные машины для рутинной работы, но они тоже способны на эмоции. Главная героиня – супербот Ариса – пытается понять, что значит быть человеком. Как ребенок, она познаёт мир и постепенно открывает для себя такие чувства, как: забота, преданность и любовь. При этом, ее абсолютное и наивное следование по этому пути и делает ее существом лучшим, чем сами люди.

Рейтинг и доп. информация:


Видео: 1280x720 (16:9), 25 fps, AVC MPEG-4 (x264), High@L4.1 ~ 3200 kbps , 0.1311 bit/pixel
Аудио: 48 kHz, AC3, 2/0 (L,R) ch, ~192.00 kbps avg
Внимание! Раздача ведётся путём добавления новых серий
Внимание! Раздача ведётся путём добавления новых серий. При каждом добавлении создаётся новый торрент.
Чтобы начать докачку новой серии, пользователям необходимо сделать следующее:
1. Остановить скачивание.
2. Удалить старый торрент у себя из клиента (старые серии удалять не надо).
3. Скачать новый торрент и запустить его у себя в клиенте вместо старого, при этом указать клиенту путь в старую папку куда и должно происходить скачивание новых серий. Ваш клиент при этом должен произвести хеширование (проверку) старой папки и будет докачивать только те серии, которых у вас ещё нет. Старые серии при этом не удаляются, а продолжают раздаваться! Eсли вы уже удалили старые серии, то предотвратить повторную закачку старых серий можно, отжав галочку в соответствующих местах при запуске нового торрента.

MediaInfo
Общее
Уникальный идентификатор : 226284967922475275003548014970902946406 (0xAA3CE64A21B750F28978F3B48F502266)
Полное имя : C:\ULuchshe.chem.lyudi.2018.WEB-DL.(720p).Getty\Luchshe.chem.lyudi.e01.2018.WEB-DL.(720p).Getty.mkv
Формат : Matroska
Версия формата : Version 4
Размер файла : 1,14 Гбайт
Продолжительность : 49 м. 43 с.
Режим общего битрейта : Постоянный
Общий поток : 3279 Кбит/сек
Название фильма : Luchshe.chem.lyudi.e01.2018.WEB-DL.(720p).Getty
Дата кодирования : UTC 2018-11-22 22:59:49
Программа кодирования : mkvmerge v7.8.0 ('River Man') 32bit built on Mar 27 2015 16:18:02
Библиотека кодирования : libebml v1.3.1 + libmatroska v1.4.2

Видео
Идентификатор : 1
Формат : AVC
Формат/Информация : Advanced Video Codec
Профиль формата : High@L4.1
Настройки формата : CABAC / 4 Ref Frames
Параметр CABAC формата : Да
Параметр RefFrames формата : 4 кадра
Идентификатор кодека : V_MPEG4/ISO/AVC
Продолжительность : 49 м. 43 с.
Вид битрейта : Постоянный
Битрейт : 3022 Кбит/сек
Номинальный битрейт : 3200 Кбит/сек
Ширина : 1280 пикселей
Высота : 720 пикселей
Соотношение сторон : 16:9
Режим частоты кадров : Постоянный
Частота кадров : 25,000 кадров/сек
Цветовое пространство : YUV
Субдискретизация насыщенности : 4:2:0
Битовая глубина : 8 бит
Тип развёртки : Прогрессивная
Бит/(Пиксели*Кадры) : 0.131
Размер потока : 1,05 Гбайт (92%)
Default : Да
Forced : Нет

Аудио
Идентификатор : 2
Формат : AC-3
Формат/Информация : Audio Coding 3
Коммерческое название : Dolby Digital
Идентификатор кодека : A_AC3
Продолжительность : 49 м. 43 с.
Вид битрейта : Постоянный
Битрейт : 192 Кбит/сек
Каналы : 2 канала
Channel layout : L R
Частота : 48,0 КГц
Частота кадров : 31,250 кадров/сек (1536 SPF)
Битовая глубина : 16 бит
Метод сжатия : С потерями
Размер потока : 68,3 Мбайт (6%)
ServiceKind/String : Complete Main
Default : Да
Forced : Нет

Информация о торренте:
Размер содержимого: 4.8 GB
Скачан: 410 раз
Статус: Обновляемая раздача
Зарегистрирован на трекере: 2018-12-07 19:53
Скачать торрент


Поддержи раздачу — поставь лайк:
E-mail:
* Это обновляемая раздача и мы можем вас информировать об обновлении торрента в ней.

BLIZNEC W
2018-11-23 20:49
Интересного и приятного просмотра!!!

Мои раздачи
Писать комментарии на нашем торрент-трекере могут только зарегистрированные пользователи.
Зарегистрируйтесь или авторизируйтесь на сайте.