»
»

Скачать фильм Легенда о княгине Ольге (Юрий Ильенко) / [1984, драма, история, DVDRip-AVC] - торрент

Нажмите синюю кнопку, чтобы cкачать бесплатно через торрент фильм. Фильм доступен на нашем торрент-трекере бесплатно, без регистрации и смс.

Статистика раздачи
151 [ 0 b/s ] ↑ 2.0 GB ↓ 0 [ 0 b/s ]
Автор Сообщение
BLIZNEC W
2018-12-07 20:22
Легенда о княгине Ольге
Легенда о княгине Ольге Формат: DVDRip-AVC, MKV, H.264, AC3
Режиссер: Юрий Ильенко
Жанр: драма, история
Продолжительность: 02:07:27
Год выпуска: 1984

В ролях: Людмила Ефименко, Лесь Сердюк, Константин Степанков, Иван Миколайчук, Ваня Иванов, Иван Гаврилюк, Дмитрий Миргородский, Николай Олялин, Светлана Ромашко, Георгий Морозюк, Александр Денисенко, Виктор Демерташ, Юрий Дубровин, Михаил Голубович, Леонид Оболенский, Александр Загребельный, Иван Савкин, Филипп Ильенко

Описание: В основе фильма легенды и сказания, воссоздающие образ княгини Ольги – государственной деятельницы Киевской Руси конца Х – начала XI века. Это рассказы трех, по-разному относящихся к Ольге людей: монаха Арефы, ключницы Малуши и внука Владимира Красное Солнышко.

Рейтинг и доп. информация:


Видео: 720х444@1024x444, (2,35:1), 25 fps, AVC MPEG-4 (x264), High@L4.1 ~ 2000 kbps , 0.250 bit/pixel
Аудио: 48 kHz, АС3, 2/0 (L,R), ~224.00 kbps avg
MediaInfo
x264 [info]: frame I:954 Avg QP:15.97 size: 67996
x264 [info]: frame P:48761 Avg QP:19.26 size: 22820
x264 [info]: frame B:141464 Avg QP:20.13 size: 5189

Общее
Уникальный идентификатор : 186251734709759929709408014010901198751 (0x8C1EC780AC8B398DA23FE078A0B9F79F)
Полное имя : H:СССРЛегенда о княгине Ольге 1984_DVDRip-AVC_KORSAR.mkv
Формат : Matroska
Версия формата : Version 2
Размер файла : 1,98 Гбайт
Продолжительность : 2 ч. 7 м.
Общий поток : 2226 Кбит/сек
Дата кодирования : UTC 2018-12-06 09:32:36
Программа кодирования : mkvmerge v5.8.0 ('No Sleep / Pillow') built on Sep 2 2012 15:37:04
Библиотека кодирования : libebml v1.2.3 + libmatroska v1.3.0

Видео
Идентификатор : 1
Формат : AVC
Формат/Информация : Advanced Video Codec
Профиль формата : High@L4.1
Настройки формата : CABAC / 14 Ref Frames
Параметр CABAC формата : Да
Параметр RefFrames формата : 14 кадров
Идентификатор кодека : V_MPEG4/ISO/AVC
Продолжительность : 2 ч. 7 м.
Битрейт : 2000 Кбит/сек
Ширина : 720 пикселей
Высота : 444 пикселя
Соотношение сторон : 2,35:1
Режим частоты кадров : Постоянный
Частота кадров : 25,000 кадров/сек
Цветовое пространство : YUV
Субдискретизация насыщенности : 4:2:0
Битовая глубина : 8 бит
Тип развёртки : Прогрессивная
Бит/(Пиксели*Кадры) : 0.250
Размер потока : 1,74 Гбайт (88%)
Библиотека кодирования : x264 core 152 r2851kMod ba24899
Настройки программы : cabac=1 / ref=14 / deblock=1:-2:-2 / analyse=0x3:0x133 / me=umh / subme=11 / psy=1 / fade_compensate=0.00 / psy_rd=1.05:0.10 / mixed_ref=1 / me_range=48 / chroma_me=1 / trellis=2 / 8x8dct=1 / cqm=0 / deadzone=21,11 / fast_pskip=0 / chroma_qp_offset=-3 / threads=12 / lookahead_threads=3 / sliced_threads=0 / nr=0 / decimate=0 / interlaced=0 / bluray_compat=0 / constrained_intra=0 / bframes=14 / b_pyramid=2 / b_adapt=2 / b_bias=0 / direct=3 / weightb=1 / open_gop=0 / weightp=2 / keyint=250 / keyint_min=25 / scenecut=40 / intra_refresh=0 / rc_lookahead=40 / rc=2pass / mbtree=0 / bitrate=2000 / ratetol=1.0 / qcomp=0.60 / qpmin=0 / qpmax=39 / qpstep=4 / cplxblur=20.0 / qblur=0.5 / vbv_maxrate=50000 / vbv_bufsize=62500 / nal_hrd=none / filler=0 / ip_ratio=1.25 / pb_ratio=1.30 / aq=1:1.00
Язык : English
Default : Да
Forced : Нет
Цветовой диапазон : Limited
Основные цвета : BT.601 PAL
Характеристики трансфера : BT.470 System B, BT.470 System G
Коэффициенты матрицы : BT.470 System B, BT.470 System G

Аудио
Идентификатор : 2
Формат : AC-3
Формат/Информация : Audio Coding 3
Параметр Endianness формата : Big
Идентификатор кодека : A_AC3
Продолжительность : 2 ч. 7 м.
Вид битрейта : Постоянный
Битрейт : 224 Кбит/сек
Каналы : 2 канала
Расположение каналов : Front: L R
Частота : 48,0 КГц
Частота кадров : 31,250 кадров/сек (1536 SPF)
Битовая глубина : 16 бит
Метод сжатия : С потерями
Размер потока : 204 Мбайт (10%)
Язык : Russian
Default : Да
Forced : Нет

Меню
00:00:00.000 : en:Chapter 1
00:08:02.320 : en:Chapter 2
00:17:05.680 : en:Chapter 3
00:25:13.840 : en:Chapter 4
00:31:47.440 : en:Chapter 5
00:39:51.760 : en:Chapter 6
00:46:34.960 : en:Chapter 7
00:56:19.600 : en:Chapter 8
01:03:34.960 : en:Chapter 9
01:12:20.400 : en:Chapter 10
01:21:12.720 : en:Chapter 11
01:31:09.360 : en:Chapter 12
01:39:20.400 : en:Chapter 13
01:44:41.520 : en:Chapter 14
01:53:32.880 : en:Chapter 15
02:01:35.280 : en:Chapter 16

Информация о торренте:
Размер содержимого: 2.0 GB
Скачан: 102 раза
Статус: Проверен
Зарегистрирован на трекере: 2018-12-07 19:22
Скачать торрент


Поддержи раздачу — поставь лайк:
BLIZNEC W
2018-12-07 19:22
Интересного и приятного просмотра!!!

Мои раздачи
Писать комментарии на нашем торрент-трекере могут только зарегистрированные пользователи.
Зарегистрируйтесь или авторизируйтесь на сайте.