»
»

Касл / Castle (1 сезон, 1-4 серии из 10) (Эндрю У. Марлоу) [2009 г., детектив, драма, комедия, WEB-DLRip,D] (ТВ3 Россия)

Скачать бесплатный торрент .

Автор Сообщение
ранд-алтор
2010-09-24 20:16
Касл / Castle



Касл / Castle

Год выпуска: 2009
Страна: США
Жанр: детектив, драма, комедия
Продолжительность: ~ 00:45:00
Перевод: Профессиональный (полное дублирование) ТВ3 Россия
Режиссер: Эндрю У. Марлоу


В ролях: Стана Катич (Кейт Беккет), Натан Филлион (Ричард Касл), Молли С. Куинн (Алексис Касл), Симус Девер (Кевин Райан), Джон Уэртас (Хавьер Эспозито), Тэмела Джонс (Лэни Пэриш).



Описание: Знакомьтесь, Ричард Касл - успешный писатель детективного жанра, который в последней книге убил своего главного героя. Но кажется, что одному из почитателей его таланта книги понравились слегка чересчур - в городе появляется подражатель, совершающий преступления, с убийственной точностью копируя способы, которыми Касл убивал в своих произведениях. И вот наш изнывающий от скуки писатель был вызван в отдел убийств Нью-йоркской полиции, чтобы помочь найти убийцу.

[br]
Качество: WEB-DLRip
Формат: AVI
Видео кодек: XviD
Аудио кодек: MP3
Видео: 624x352 (1.77), 23.976 fps, ~1027 kbps, 0.20 bit/pixel
Аудио RUS: 48 kHz, 2 ch, ~128 kbps
Аудио ENG: 48 kHz, 2 ch, ~128 kbps

[br]

Релиз:
Звук предоставил: Baggio
Подготовка видео: koss
Работа со звуком: Baggio


[br]

[br]
Список серий
1. Flowers for Your Grave (Цветы на твою могилу)
2. Nanny McDead (Моя мертвая няня)
3. Hedge Fund Homeboys (Мальчики-мажоры)
4. Hell hath no fury (В аду нет столько гнева...)
5. A Chill Goes Through Her Veins (Когда кровь стынет в жилах)
6. Always Buy Retail (Остерегайтесь подделок)
7. Home Is Where the Heart Stops (Дом там, где прекращает биться сердце)
8. Ghosts (Призраки)
9. Little Girl Lost (Маленькая Пропавшая Девочка)
10. A Death in the Family (Смерть в Семье)

[br]

Описание серий
1 серия: Находясь в состоянии творческого и личного кризиса, прославленный писатель детективного жанра Ричард Касл узнает, что в городе совершена серия жестоких убийств, основанных на его романе. Пытаясь помочь следствию, он знакомится с детективом Кейт Беккет…
2 серия: В подвале элитного жилого дома, в сушилке для белья обнаружен труп девушки. Касл и Беккет выясняют, что погибшая работала в здании няней. Тем временем, вдохновленный образом Беккет, Касл начинает работу над новым циклом романов…

3 серия:
В озере в Центральном парке обнаружена дрейфующая лодка с трупом подростка – юноши из обеспеченной Нью-Йоркской семьи. Взявшись за расследование, Касл и Беккет встречают неожиданное сопротивление со стороны друзей жертвы...

4 серия: В разгар предвыборной кампании на помойке обнаружен труп члена городского совета. Расследование вовлекает Касла и Беккет в мир грязной политики…

5 серия:
На одной из строительных площадок города обнаружен заледенелый труп женщины, пропавшей пять лет назад. В ходе расследования выясняется, что погибшая пропала за две недели до собственной свадьбы…

6 серия: Расследуя ритуальное убийство студента из Нигерии, Касл и Бекетт погружаются в мир Вуду. Занимавшись изучением религиозных практик для одной из своих книг, Ричард чувствует себя довольно уверенно, чего нельзя сказать о Бекетт. Тем временем, бывшая жена Касла решает вновь перебраться в Нью-Йорк…

7 серия: Расследуя серию ограблений, два из которых закончились убийствами, Касл и Бекетт отправляются на светское торжество под видом влюбленной пары. Тем временем, новая книга Касла выходит в свет…

8 серия: В ванной дешевого мотеля, заполненной машинным маслом, обнаружен труп женщины. Пытаясь установить личность погибшей, Касл и Бекетт выясняют, что девушка имела отношение к давнему теракту…


MediaInfo
Код:
Video
ID : 0
Format : MPEG-4 Visual
Format profile : Advanced Simple@L5
Format settings, BVOP : Yes
Format settings, QPel : Yes
Format settings, GMC : No warppoints
Format settings, Matrix : Default (MPEG)
Muxing mode : Packed bitstream
Codec ID : XVID
Codec ID/Hint : XviD
Duration : 43mn 13s
Bit rate : 1 020 Kbps
Width : 624 pixels
Height : 352 pixels
Display aspect ratio : 16:9
Frame rate : 23.976 fps
Resolution : 8 bits
Colorimetry : 4:2:0
Scan type : Progressive
Bits/(Pixel*Frame) : 0.194
Stream size : 315 MiB (79%)
Writing library : XviD 1.2.1 (UTC 2008-12-04)

Audio #1
ID : 1
Format : MPEG Audio
Format version : Version 1
Format profile : Layer 3
Format_Settings_Mode : Joint stereo
Format_Settings_ModeExtension : MS Stereo
Codec ID : 55
Codec ID/Hint : MP3
Duration : 43mn 13s
Bit rate mode : Constant
Bit rate : 128 Kbps
Channel(s) : 2 channels
Sampling rate : 48.0 KHz
Stream size : 39.6 MiB (10%)
Alignment : Aligned on interleaves
Interleave, duration : 42 ms (1.00 video frame)
Interleave, preload duration : 504 ms

Audio #2
ID : 2
Format : MPEG Audio
Format version : Version 1
Format profile : Layer 3
Format_Settings_Mode : Joint stereo
Format_Settings_ModeExtension : MS Stereo
Codec ID : 55
Codec ID/Hint : MP3
Duration : 43mn 13s
Bit rate mode : Variable
Bit rate : 126 Kbps
Nominal bit rate : 128 Kbps
Channel(s) : 2 channels
Sampling rate : 48.0 KHz
Stream size : 38.9 MiB (10%)
Alignment : Aligned on interleaves
Interleave, duration : 24 ms (0.58 video frame)
Interleave, preload duration : 561 ms
Writing library : LAME3.90.
Encoding settings : -m j -V 4 -q 2 -lowpass 17.6 --abr 128


Внимание! Раздача ведётся путём добавления новых серий!
Внимание! Раздача ведётся путём добавления новых серий; при каждом добавлении создётся новый торрент. Чтобы начать докачку новой серии, пользователям необходимо сделать следующее:
(1) остановить скачивание,
(2) удалить старый торрент у себя из клиента (старые серии удалять не надо),
(3) скачать новый торрент и запустить его у себя в клиенте вместо старого, при этом указать клиенту путь в старую папку куда и должно происходить скачивание новых серий.

Ваш клиент при этом должен произвести хеширование (проверку) старой папки (если не производит сам - помогите ему сделать это), и будет докачивать только те серии которых у вас ещё нет. Старые серии при этом не удаляются, а продолжают раздаваться!

Eсли вы уже удалили старые серии, то предотвратить повторную закачку старых серий можно, отжав галочку в соответсвующих местах при запуске нового торрента.



MEN_x
2010-09-24 20:44
Приветсвую....
конечно все это хорошо,, и красиво,, но эта форма релиза с рутрекера....
У Нас есть свои правила,, оформления раздач вот они:

:arrow: Правила оформления раздач в разделе сериалы :arrow2:

5. Примеры правильного оформления релиза.



Исправляйте....
Писать комментарии на нашем торрент-трекере могут только зарегистрированные пользователи.
Зарегистрируйтесь или авторизируйтесь на сайте.